You are here: Home - ARMIN / Video - Armin van Buuren – HDTV Video Ultra Music Festival 2012

Armin van Buuren – HDTV Video Ultra Music Festival 2012

Posted by on April 8th, 2012 with Comments Off on Armin van Buuren – HDTV Video Ultra Music Festival 2012
Armin van Buuren VIDEO Ultra Music Festival in Miami USA 25 March 2012
Armin van Buuren HDTV Ultra Music Festival 2012
Armin van Buuren – HDTV Ultra Music Festival 2012.part1
Armin van Buuren – HDTV Ultra Music Festival 2012.part2
Armin van Buuren – HDTV Ultra Music Festival 2012.part3

Complete name : Armin van Buuren – HDTV Ultra Music Festival 2012
Format : MPEG-TS
File size : 8.75 GiB
Duration : 59mn 56s

01. Omnia – The Fusion (Armin van Buuren’s Intro Edit)
02. Cosmic Gate feat. Emma Hewitt – Be Your Sound
03. Armin van Buuren vs. Sophie Ellis-Bextor – Not Giving Up On Love (Dash Berlin 4AM Mix)
04. The Killers – Mr. Brightside (Marco V Treatment)
05. W&W – Impact (MaRLo Remix)
06. Armin van Buuren pres. Gaia – J’ai Envie De Toi
07. Armin van Buuren & Orjan Nilsen – Belter
08. Ferry Corsten vs. Armin van Buuren – Brute
09. Gareth Emery feat. Christina Novelli – Concrete Angel (John O’Callaghan Remix)
10. Dakota vs. Marcel Woods – Advanced Sleepwalkers (Markus Schulz Mashup)
11. John O’Callaghan – Stresstest
12. John O’Callaghan vs. Armin van Buuren feat. Sharon den Adel – In and Out of a Raw Deal (Armin van Buuren Mashup)

Video

Format : MPEG Video
Format version : Version 2
Format profile : Main@High
Format settings, BVOP : Yes
Format settings, Matrix : Custom
Duration : 59mn 56s
Bit rate mode : Variable
Bit rate : 19.5 Mbps
Maximum bit rate : 20.0 Mbps
Width : 1 920 pixels
Height : 1 080 pixels
Display aspect ratio : 16:9
Frame rate : 29.970 fps
Color space : YUV
Chroma subsampling : 4:2:0
Bit depth : 8 bits
Scan type : Interlaced
Scan order : Top Field First
Compression mode : Lossy
Bits/(Pixel*Frame) : 0.313
Stream size : 8.15 GiB (93%)

Audio

Format : MPEG Audio
Format version : Version 1
Format profile : Layer 2
Duration : 59mn 56s
Bit rate mode : Constant
Bit rate : 384 Kbps
Channel(s) : 2 channels
Sampling rate : 48.0 KHz
Compression mode : Lossy
Stream size : 165 MiB (2%)

Comments are closed.